BT种子

 找回密码
 注册
搜索
查看: 435|回复: 0

[REMUX] [科幻]哥斯拉 Godzilla.2014.1080p.BluRay.REMUX.AVC.DTS-HD.MA.7.1-31GB

[复制链接]

2100

主题

2141

帖子

2万

影币

导演

Rank: 8Rank: 8Rank: 8Rank: 8Rank: 8Rank: 8Rank: 8Rank: 8

积分
24201
注册时间
2018-4-23
最后登录
2019-3-24

Medal No.1Medal No.2Medal No.3Medal No.4Medal No.5Medal No.6Medal No.7

发表于 2019-3-14 19:33:31 | 显示全部楼层 |阅读模式


◎译  名 哥斯拉 / ゴジラ / 哥吉拉(台)
◎片  名 Godzilla
◎年  代 2014
◎产  地 美国 / 日本
◎类  别 动作 / 科幻 / 冒险 / 灾难
◎语  言 英语 / 日语
◎上映日期 2014-03-08(洛杉矶首映) / 2014-05-16(美国) / 2014-06-13(中国大陆)
◎IMDb评分 6.4/10 from 343036 users
◎IMDb链接 http://www.imdb.com/title/tt0831387
◎豆瓣评分 6.4/10 from 121273 users
◎豆瓣链接 https://movie.douban.com/subject/2063914/
◎BT之家整理 http://bbs.homefei.me/
◎片  长 123分钟
◎导  演 加里斯·爱德华斯 Gareth Edwards
◎编  剧 麦克思·鲍伦斯坦 Max Borenstein / 戴夫·卡拉汉姆 Dave Callaham
◎主  演 亚伦·泰勒-约翰逊 Aaron Taylor-Johnson
      卡梅隆·CJ·亚当斯 Cameron 'CJ' Adams
      渡边谦 Ken Watanabe
      布莱恩·科兰斯顿 Bryan Cranston
      伊丽莎白·奥尔森 Elizabeth Olsen
      Carson Bolde
      莎莉·霍金斯 Sally Hawkins
      朱丽叶·比诺什 Juliette Binoche
      大卫·斯特雷泽恩 David Strathairn
      理查德·琼斯 Richard T. Jones
      维克多·罗塞克 Victor Rasuk
      帕特里克·萨邦圭 Patrick Sabongui
      杰瑞德·基苏 Jared Keeso


◎标  签 科幻 | 美国 | 灾难 | 2014 | 怪兽 | 动作 | 视觉 | 日本

◎简  介  

  拥有幸福美满生活的大兵福德·布罗迪(亚伦·泰勒-约翰逊 Aaron Taylor-Johnson 饰),内心隐藏着一个挥之不去的阴影。15年前,他和父亲乔伊(布莱恩·科兰斯顿 Bryan Cranston 饰)、母亲桑德拉(朱丽叶·比诺什 Juliette Binoch e 饰)生活在日本。父母供职于一座大型核电站。就在福德的爸爸生日当天,一场突如其来的灾难摧毁了核电站,他的母亲在灾难中丧生,语焉不详的征服隐瞒真相,以防止核辐射的名义封锁了该地区。但是乔伊却从种种异状觉察到反常之处,十五年来他一直试图揭开当天的灾难之谜,终于发现这一切都是由一只如山一般巨大的怪兽所引起。
怪兽哥斯拉从沉睡中苏醒,令人难以预测的灾难席卷而来……

◎获奖情况  

  第38届日本电影学院奖(2015)
  最佳外语片(提名)

  第16届美国青少年选择奖(2014)
  最佳动作冒险电影(提名)
  最佳突破表演电影新星(提名) 伊丽莎白·奥尔森

  第1届豆瓣电影年度榜单(2014)
  6月最受关注电影(提名)

Video
ID : 1
Format : AVC
Format/Info : Advanced Video Codec
Format profile : High@L4.1
Format settings : CABAC / 2 Ref Frames
Format settings, CABAC : Yes
Format settings, ReFrames : 2 frames
Format settings, GOP : M=1, N=10
Codec ID : V_MPEG4/ISO/AVC
Duration : 2 h 3 min
Bit rate mode : Variable
Bit rate : 23.7 Mb/s
Width : 1 920 pixels
Height : 1 080 pixels
Display aspect ratio : 16:9
Frame rate mode : Constant
Frame rate : 23.976 (24000/1001) FPS
Color space : YUV
Chroma subsampling : 4:2:0
Bit depth : 8 bits
Scan type : Progressive
Bits/(Pixel*Frame) : 0.477
Stream size : 20.4 GiB (65%)
Title : Godzilla.2014.1080p.BluRay.REMUX.AVC.DTS-HD.MA.7.1-FGT
Language : English
Default : No
Forced : No

Audio #1
ID : 2
Format : DTS XLL
Format/Info : Digital Theater Systems
Commercial name : DTS-HD Master Audio
Codec ID : A_DTS
Duration : 2 h 3 min
Bit rate mode : Variable
Bit rate : 5 272 kb/s
Channel(s) : 8 channels
Channel layout : C L R LFE Lb Rb Lss Rss
Sampling rate : 48.0 kHz
Frame rate : 93.750 FPS (512 SPF)
Bit depth : 24 bits
Compression mode : Lossless
Stream size : 4.53 GiB (15%)
Title : Godzilla.2014.1080p.BluRay.REMUX.AVC.DTS-HD.MA.7.1-FGT
Language : English
Default : Yes
Forced : No

Audio #2
ID : 3
Format : DTS
Format/Info : Digital Theater Systems
Codec ID : A_DTS
Duration : 2 h 3 min
Bit rate mode : Constant
Bit rate : 1 509 kb/s
Channel(s) : 6 channels
Channel layout : C L R Ls Rs LFE
Sampling rate : 48.0 kHz
Frame rate : 93.750 FPS (512 SPF)
Bit depth : 24 bits
Compression mode : Lossy
Stream size : 1.30 GiB (4%)
Title : Godzilla.2014.1080p.BluRay.REMUX.AVC.DTS-HD.MA.7.1-FGT
Language : English
Default : No
Forced : No

Audio #3
ID : 4
Format : AC-3
Format/Info : Audio Coding 3
Commercial name : Dolby Digital
Codec ID : A_AC3
Duration : 2 h 3 min
Bit rate mode : Constant
Bit rate : 448 kb/s
Channel(s) : 6 channels
Channel layout : L R C LFE Ls Rs
Sampling rate : 48.0 kHz
Frame rate : 31.250 FPS (1536 SPF)
Bit depth : 16 bits
Compression mode : Lossy
Stream size : 395 MiB (1%)
Title : Godzilla.2014.1080p.BluRay.REMUX.AVC.DTS-HD.MA.7.1-FGT
Language : English
Service kind : Complete Main
Default : No
Forced : No

Audio #4
ID : 5
Format : DTS XLL
Format/Info : Digital Theater Systems
Commercial name : DTS-HD Master Audio
Codec ID : A_DTS
Duration : 2 h 3 min
Bit rate mode : Variable
Bit rate : 2 917 kb/s
Channel(s) : 8 channels
Channel layout : C L R LFE Lb Rb Lss Rss
Sampling rate : 48.0 kHz
Frame rate : 93.750 FPS (512 SPF)
Bit depth : 16 bits
Compression mode : Lossless
Stream size : 2.51 GiB (8%)
Title : Godzilla.2014.1080p.BluRay.REMUX.AVC.DTS-HD.MA.7.1-FGT
Language : German
Default : No
Forced : No

Audio #5
ID : 6
Format : DTS
Format/Info : Digital Theater Systems
Codec ID : A_DTS
Duration : 2 h 3 min
Bit rate mode : Constant
Bit rate : 1 509 kb/s
Channel(s) : 6 channels
Channel layout : C L R Ls Rs LFE
Sampling rate : 48.0 kHz
Frame rate : 93.750 FPS (512 SPF)
Bit depth : 16 bits
Compression mode : Lossy
Stream size : 1.30 GiB (4%)
Title : Godzilla.2014.1080p.BluRay.REMUX.AVC.DTS-HD.MA.7.1-FGT
Language : German
Default : No
Forced : No

Audio #6
ID : 7
Format : AC-3
Format/Info : Audio Coding 3
Commercial name : Dolby Digital
Codec ID : A_AC3
Duration : 2 h 3 min
Bit rate mode : Constant
Bit rate : 448 kb/s
Channel(s) : 6 channels
Channel layout : L R C LFE Ls Rs
Sampling rate : 48.0 kHz
Frame rate : 31.250 FPS (1536 SPF)
Bit depth : 16 bits
Compression mode : Lossy
Stream size : 395 MiB (1%)
Title : Godzilla.2014.1080p.BluRay.REMUX.AVC.DTS-HD.MA.7.1-FGT
Language : Spanish
Service kind : Complete Main
Default : No
Forced : No

Audio #7
ID : 8
Format : AC-3
Format/Info : Audio Coding 3
Commercial name : Dolby Digital
Codec ID : A_AC3
Duration : 2 h 3 min
Bit rate mode : Constant
Bit rate : 448 kb/s
Channel(s) : 6 channels
Channel layout : L R C LFE Ls Rs
Sampling rate : 48.0 kHz
Frame rate : 31.250 FPS (1536 SPF)
Bit depth : 16 bits
Compression mode : Lossy
Stream size : 395 MiB (1%)
Title : Godzilla.2014.1080p.BluRay.REMUX.AVC.DTS-HD.MA.7.1-FGT
Language : Portuguese
Service kind : Complete Main
Default : No
Forced : No

Text #1
ID : 9
Format : PGS
Muxing mode : zlib
Codec ID : S_HDMV/PGS
Codec ID/Info : Picture based subtitle format used on BDs/HD-DVDs
Duration : 2 h 1 min
Bit rate : 28.1 kb/s
Count of elements : 2902
Stream size : 24.3 MiB (0%)
Title : English-PGS
Language : English
Default : Yes
Forced : No

Text #2
ID : 10
Format : PGS
Muxing mode : zlib
Codec ID : S_HDMV/PGS
Codec ID/Info : Picture based subtitle format used on BDs/HD-DVDs
Duration : 2 h 2 min
Bit rate : 32.1 kb/s
Count of elements : 2944
Stream size : 28.0 MiB (0%)
Title : German-PGS
Language : German
Default : No
Forced : No

Text #3
ID : 11
Format : PGS
Muxing mode : zlib
Codec ID : S_HDMV/PGS
Codec ID/Info : Picture based subtitle format used on BDs/HD-DVDs
Duration : 2 h 2 min
Bit rate : 23.6 kb/s
Count of elements : 2384
Stream size : 20.7 MiB (0%)
Title : Spanish-PGS
Language : Spanish
Default : No
Forced : No




Godzilla.2014.1080p.BluRay.REMUX.AVC.DTS-HD.MA.7.1-homefei.torrent

78.58 KB, 下载次数: 22

QQ电影交流群: 498117193
您需要登录后才可以回帖 登录 | 注册

本版积分规则

BT种子 ( 联系邮箱:btzz@btzz.org )

GMT+8, 2019-3-24 12:43

Powered by Discuz! X3.2

© 2001-2013 Comsenz Inc.

快速回复 返回顶部 返回列表