BT种子

 找回密码
 注册
搜索
查看: 652|回复: 1

[REMUX] [科幻]千钧一发 Gattaca.1997.1080p.BluRay.REMUX.AVC.TrueHD.5.1-自带官方中字/26GB

[复制链接]

2100

主题

2141

帖子

2万

影币

导演

Rank: 8Rank: 8Rank: 8Rank: 8Rank: 8Rank: 8Rank: 8Rank: 8

积分
24201
注册时间
2018-4-23
最后登录
2019-3-24

Medal No.1Medal No.2Medal No.3Medal No.4Medal No.5Medal No.6Medal No.7

发表于 2019-3-14 19:36:11 | 显示全部楼层 |阅读模式


◎译  名 千钧一发 / 伽蒂卡 / 变种异煞 / 基因代码 / 太空梦 / 戛塔卡 / 自然人
◎片  名 Gattaca
◎年  代 1997
◎产  地 美国
◎类  别 剧情 / 科幻 / 惊悚
◎语  言 英语 / 世界语
◎上映日期 1997-10-24(美国)
◎IMDb评分 7.8/10 from 257487 users
◎IMDb链接 http://www.imdb.com/title/tt0119177
◎豆瓣评分 8.7/10 from 117300 users
◎豆瓣链接 https://movie.douban.com/subject/1300117/
◎BT之家整理 http://bbs.homefei.me/
◎片  长 106分钟
◎导  演 安德鲁·尼科尔 Andrew Niccol
◎编  剧 安德鲁·尼科尔 Andrew Niccol
◎主  演 伊桑·霍克 Ethan Hawke
      乌玛·瑟曼 Uma Thurman
      裘德·洛 Jude Law
      艾伦·阿金 Alan Arkin
      戈尔·维达尔 Gore Vidal
      山德·贝克利 Xander Berkeley
      劳恩·迪恩 Loren Dean
      简妮·布鲁克 Jayne Brook
      伊莱亚斯·科泰斯 Elias Koteas
      玛娅·鲁道夫 Maya Rudolph
      伍娜·戴蒙 Una Damon
      布莱尔·安德伍德 Blair Underwood
      梅森·甘布 Mason Gamble
      威廉姆·李·斯科特 William Lee Scott
      欧内斯特·博格宁 Ernest Borgnine
      托尼·夏尔赫布 Tony Shalhoub
      肯·马里诺 Ken Marino
      加布里埃尔·瑞丝 Gabrielle Reece
      迪恩·诺里斯 Dean Norris
      丹格里芬 Dan Griffin
      格雷戈·赛斯特罗 Greg Sestero
      Elizabeth Dennehy
      Chad Christ
      George Marshall Ruge



◎简  介  

  未来的世界,科技的力量胜过一切,基因决定命运,几乎成为金科玉律。不幸文森特(伊桑•霍克 Ethan Hawke  饰)是一个基因不良的人,出生以来就决定了他近视和心脏病的缺陷,他只能活到30岁。于是父母为文森特增添了一个有着优良基因的弟弟。
文森特的梦想是漫游太空,然而恶劣的基因令他无法圆梦,直到他遇到了太空中心的杰罗姆(裘德•洛 Jude Law  饰)。杰罗姆有优秀的基因,却在一次意外中半身瘫痪。二人决定调换身份,文森特千方百计隐藏自己的基因信息,每天都认真清洗掉自己的皮屑毛发,不暴露任何蛛丝马迹。另一方面,杰罗姆帮他筹备进入太空前需要检查的基因物品。事情进展得非常顺利,然而一桩谋杀案和一根睫毛,让事情节外生枝。

◎获奖情况  

  第70届奥斯卡金像奖(1998)
  最佳艺术指导(提名) 南希·奈 / 扬·鲁洛尔夫斯

Video
ID : 1
Format : AVC
Format/Info : Advanced Video Codec
Format profile : High@L4.1
Format settings : CABAC / 2 Ref Frames
Format settings, CABAC : Yes
Format settings, ReFrames : 2 frames
Codec ID : V_MPEG4/ISO/AVC
Duration : 1 h 46 min
Bit rate mode : Variable
Bit rate : 26.1 Mb/s
Width : 1 920 pixels
Height : 1 080 pixels
Display aspect ratio : 16:9
Frame rate mode : Constant
Frame rate : 23.976 (24000/1001) FPS
Color space : YUV
Chroma subsampling : 4:2:0
Bit depth : 8 bits
Scan type : Progressive
Bits/(Pixel*Frame) : 0.526
Stream size : 19.4 GiB (74%)
Title : Gattaca.1997.1080p.BluRay.REMUX.AVC.TrueHD.5.1-FGT
Language : English
Default : No
Forced : No

Audio #1
ID : 2
Format : MLP FBA
Format/Info : Meridian Lossless Packing FBA
Commercial name : Dolby TrueHD
Codec ID : A_TRUEHD
Duration : 1 h 46 min
Bit rate mode : Variable
Bit rate : 2 594 kb/s
Maximum bit rate : 4 158 kb/s
Channel(s) : 6 channels
Channel layout : L R C LFE Ls Rs
Sampling rate : 48.0 kHz
Frame rate : 1 200.000 FPS (40 SPF)
Compression mode : Lossless
Stream size : 1.93 GiB (7%)
Title : Gattaca.1997.1080p.BluRay.REMUX.AVC.TrueHD.5.1-FGT
Language : English
Default : Yes
Forced : No


Menu
00:00:00.000 : en:Chapter 01
00:07:39.083 : en:Chapter 02
00:10:58.491 : en:Chapter 03
00:18:50.045 : en:Chapter 04
00:23:40.168 : en:Chapter 05
00:31:38.688 : en:Chapter 06
00:37:20.988 : en:Chapter 07
00:43:47.541 : en:Chapter 08
00:48:39.166 : en:Chapter 09
00:56:10.867 : en:Chapter 10
01:03:50.409 : en:Chapter 11
01:08:56.173 : en:Chapter 12
01:17:00.741 : en:Chapter 13
01:22:14.387 : en:Chapter 14
01:28:35.476 : en:Chapter 15
01:34:10.519 : en:Chapter 16


Gattaca.1997.1080p.BluRay.REMUX.AVC.TrueHD.5.1-homefei.torrent

62.88 KB, 下载次数: 49

QQ电影交流群: 498117193

0

主题

1271

帖子

1180

影币

主角

Rank: 6Rank: 6Rank: 6Rank: 6Rank: 6Rank: 6

积分
1180
注册时间
2011-8-25
最后登录
2019-3-24

Medal No.1Medal No.2Medal No.3Medal No.4Medal No.5Medal No.6

发表于 2019-3-16 17:20:59 | 显示全部楼层
应该是一部不错的电影
QQ电影交流群: 498117193
您需要登录后才可以回帖 登录 | 注册

本版积分规则

BT种子 ( 联系邮箱:btzz@btzz.org )

GMT+8, 2019-3-24 13:26

Powered by Discuz! X3.2

© 2001-2013 Comsenz Inc.

快速回复 返回顶部 返回列表